Welcome to FzMovies

The Best destination for Mobile/Tablet Movies


Join our Telegram Channel to get latest updates Join @FzGroup

Follow us on Instagram @FzMovie

Follow us on Twitter to get latest updates Follow @FzGroup
Loading...

If you're using Opera/UC Browser (or other non mainstream browsers) and having trouble browsing the website smoothly, Here is a solution:

Disable the Data Saver/AdBlock in your browser and use the following links:https://t.co/ES3L3Frnt2https://t.co/ecm0fFCPWK

— FzMovies (@FzGroup) November 28, 2018

MobileTVshows - TV shows / cartoons for mobiles in avi and mp4....http://www.mobiletvshows.net


Mediainfo Time Out

Time Out (in Bollywood Movies)
File: Time_Out_DVDRip_high.mp4
File Size: 220 MB


General

Complete name : Time_Out_DVDRip_high.mp4
Format : MPEG-4
Format profile : Base Media
Codec ID : isom (isom/iso2/avc1/mp41)
File size : 220 MiB
Duration : 9 h 52 min
Overall bit rate : 51.9 kb/s
Writing application : Lavf57.19.100

Video

ID : 1
Format : AVC
Format/Info : Advanced Video Codec
Format profile : [email protected]
Format settings : CABAC / 5 Ref Frames
Format settings, CABAC : Yes
Format settings, ReFrames : 5 frames
Codec ID : avc1
Codec ID/Info : Advanced Video Coding
Duration : 1 h 34 min
Bit rate : 270 kb/s
Width : 640 pixels
Height : 272 pixels
Display aspect ratio : 2.35:1
Frame rate mode : Constant
Frame rate : 23.976 (24000/1001) FPS
Color space : YUV
Chroma subsampling : 4:2:0
Bit depth : 8 bits
Scan type : Progressive
Bits/(Pixel*Frame) : 0.065
Stream size : 183 MiB (83%)
Title : 720p - DDR
Writing library : x264 core 142 r2 ac76440
Encoding settings : cabac=1 / ref=5 / deblock=1:-1:-1 / analyse=0x3:0x113 / me=umh / subme=8 / psy=1 / psy_rd=1.00:0.15 / mixed_ref=1 / me_range=16 / chroma_me=1 / trellis=1 / 8x8dct=1 / cqm=0 / deadzone=21,11 / fast_pskip=1 / chroma_qp_offset=-3 / threads=18 / lookahead_threads=2 / sliced_threads=0 / nr=0 / decimate=1 / interlaced=0 / bluray_compat=0 / constrained_intra=0 / bframes=3 / b_pyramid=2 / b_adapt=2 / b_bias=0 / direct=3 / weightb=1 / open_gop=0 / weightp=2 / keyint=250 / keyint_min=23 / scenecut=40 / intra_refresh=0 / rc_lookahead=50 / rc=2pass / mbtree=1 / bitrate=270 / ratetol=1.0 / qcomp=0.60 / qpmin=0 / qpmax=69 / qpstep=4 / cplxblur=20.0 / qblur=0.5 / ip_ratio=1.40 / aq=1:1.00
Language : English
Menus : 3
Codec configuration box : avcC

Audio

ID : 2
Format : AAC LC
Format/Info : Advanced Audio Codec Low Complexity
Codec ID : mp4a-40-2
Duration : 1 h 34 min
Duration_LastFrame : -15 ms
Bit rate mode : Constant
Bit rate : 48.0 kb/s
Channel(s) : 1 channel
Channel layout : C
Sampling rate : 44.1 kHz
Frame rate : 43.066 FPS (1024 SPF)
Compression mode : Lossy
Stream size : 32.6 MiB (15%)
Title : DD5.1 - 448Kbps - DDR
Language : Hindi
Default : Yes
Alternate group : 1
Menus : 3

Menu #1

ID : 3
Codec ID : text
Duration : 9 h 52 min
Language : English
Bit rate mode : CBR
Menu For : 1,2
00:00:00.000 : Chapter 01
00:04:17.868 : Chapter 02
00:09:53.968 : Chapter 03
00:21:42.702 : Chapter 04
00:24:53.802 : Chapter 05
00:31:47.802 : Chapter 06
00:35:08.802 : Chapter 07
00:54:44.969 : Chapter 08
00:57:45.969 : Chapter 09
01:01:46.969 : Chapter 10
01:06:15.036 : Chapter 11
01:17:49.970 : Chapter 12
01:24:04.070 : Chapter 13
01:27:55.237 : Chapter 14
01:29:31.537 : Chapter 15
01:32:27.171 : Chapter 16

Menu #2

00:00:00.000 : Chapter 01
00:04:17.868 : Chapter 02
00:09:53.968 : Chapter 03
00:21:42.702 : Chapter 04
00:24:53.802 : Chapter 05
00:31:47.802 : Chapter 06
00:35:08.802 : Chapter 07
00:54:44.969 : Chapter 08
00:57:45.969 : Chapter 09
01:01:46.969 : Chapter 10
01:06:15.036 : Chapter 11
01:17:49.970 : Chapter 12
01:24:04.070 : Chapter 13
01:27:55.237 : Chapter 14
01:29:31.537 : Chapter 15
01:32:27.171 : Chapter 16

Download Time Out ()

Time Out (in Bollywood Movies)
File: Time_Out_DVDRip_high.mp4
File Size: 220 MB
Loading...