Welcome to FzMovies

The Best destination for Mobile/Tablet Movies


Follow us on social media for latest updates
Telegram - @FzGroup | Instagram - @FzMovie | Twitter - @FzGroup


MobileTVshows - TV shows / cartoons for mobiles in avi and mp4....http://www.mobiletvshows.net


Mediainfo Anthony Kaun Hai

Anthony Kaun Hai (in Bollywood Movies)
File: Anthony_Kaun_Hai_WEB-DL_002.3gp
File Size: 82 MB


General

Complete name : Anthony_Kaun_Hai_WEB-DL_002.3gp
Format : MPEG-4
Format profile : 3GPP Media Release 5
Codec ID : 3gp5 (isom/3gp5/3gp4/mp41/mp42)
File size : 81.8 MiB
Duration : 56 min 46 s
Overall bit rate mode : Constant
Overall bit rate : 201 kb/s
Encoded date : UTC 2018-07-04 14:52:48
Tagged date : UTC 2018-07-04 14:52:48

Video

ID : 1
Format : MPEG-4 Visual
Format profile : [email protected]
Format settings, BVOP : No
Format settings, QPel : No
Format settings, GMC : No warppoints
Format settings, Matrix : Default (H.263)
Codec ID : mp4v-20
Duration : 56 min 46 s
Bit rate mode : Constant
Bit rate : 170 kb/s
Width : 320 pixels
Height : 240 pixels
Display aspect ratio : 3.000
Frame rate mode : Constant
Frame rate : 25.000 FPS
Color space : YUV
Chroma subsampling : 4:2:0
Bit depth : 8 bits
Scan type : Progressive
Compression mode : Lossy
Bits/(Pixel*Frame) : 0.089
Stream size : 67.8 MiB (83%)
Writing library : Lavc58.9.100
Language : Hindi
Tagged date : UTC 2018-07-04 14:52:54

Audio

ID : 2
Format : AAC LC
Format/Info : Advanced Audio Codec Low Complexity
Codec ID : mp4a-40-2
Duration : 56 min 46 s
Bit rate mode : Constant
Bit rate : 32.0 kb/s
Channel(s) : 1 channel
Channel layout : C
Sampling rate : 44.1 kHz
Frame rate : 43.066 FPS (1024 SPF)
Compression mode : Lossy
Stream size : 13.0 MiB (16%)
Language : Hindi
Default : Yes
Alternate group : 1
Tagged date : UTC 2018-07-04 14:52:54

Download Anthony Kaun Hai ()

Anthony Kaun Hai (in Bollywood Movies)
File: Anthony_Kaun_Hai_WEB-DL_002.3gp
File Size: 82 MB
Loading...