Welcome to FzMovies

The Best destination for Mobile/Tablet Movies


Join our Telegram Channel to get latest updates Join @FzGroup

Follow us on Instagram @FzMovie

Follow us on Twitter to get latest updates Follow @FzGroup
Loading...

If you're using Opera/UC Browser (or other non mainstream browsers) and having trouble browsing the website smoothly, Here is a solution:

Disable the Data Saver/AdBlock in your browser and use the following links:https://t.co/ES3L3Frnt2https://t.co/ecm0fFCPWK

— FzMovies (@FzGroup) November 28, 2018

MobileTVshows - TV shows / cartoons for mobiles in avi and mp4....http://www.mobiletvshows.net


Mediainfo Ittefaq 2017

Ittefaq 2017 (in Bollywood Movies)
File: Ittefaq_2017_BluRay_001.3gp
File Size: 85 MB


General

Complete name : Ittefaq_2017_BluRay_001.3gp
Format : MPEG-4
Format profile : 3GPP Media Release 5
Codec ID : 3gp5 (isom/3gp5/3gp4/mp41/mp42)
File size : 84.9 MiB
Duration : 57 min 51 s
Overall bit rate mode : Constant
Overall bit rate : 205 kb/s
Encoded date : UTC 2018-06-16 19:41:07
Tagged date : UTC 2018-06-16 19:41:07

Video

ID : 1
Format : MPEG-4 Visual
Format profile : [email protected]
Format settings, BVOP : No
Format settings, QPel : No
Format settings, GMC : No warppoints
Format settings, Matrix : Default (H.263)
Codec ID : mp4v-20
Duration : 57 min 51 s
Bit rate mode : Constant
Bit rate : 170 kb/s
Width : 320 pixels
Height : 240 pixels
Display aspect ratio : 3.000
Frame rate mode : Constant
Frame rate : 24.000 FPS
Color space : YUV
Chroma subsampling : 4:2:0
Bit depth : 8 bits
Scan type : Progressive
Compression mode : Lossy
Bits/(Pixel*Frame) : 0.092
Stream size : 70.2 MiB (83%)
Writing library : Lavc58.9.100
Tagged date : UTC 2018-06-16 19:41:21

Audio

ID : 2
Format : AAC LC
Format/Info : Advanced Audio Codec Low Complexity
Codec ID : mp4a-40-2
Duration : 57 min 50 s
Bit rate mode : Constant
Bit rate : 32.0 kb/s
Channel(s) : 1 channel
Channel layout : C
Sampling rate : 44.1 kHz
Frame rate : 43.066 FPS (1024 SPF)
Compression mode : Lossy
Stream size : 13.2 MiB (16%)
Language : Hindi
Default : Yes
Alternate group : 1
Tagged date : UTC 2018-06-16 19:41:21

Menu

00:00:00.000 : 00:00:00.000
00:01:06.625 : 00:01:06.625
00:08:28.750 : 00:08:28.750
00:15:33.500 : 00:15:33.500
00:28:50.000 : 00:28:50.000
00:36:17.208 : 00:36:17.208
00:49:29.833 : 00:49:29.833
00:54:23.500 : 00:54:23.500

Download Ittefaq 2017 ()

Ittefaq 2017 (in Bollywood Movies)
File: Ittefaq_2017_BluRay_001.3gp
File Size: 85 MB
Loading...