Welcome to FzMovies

The Best destination for Mobile/Tablet Movies


Join our Telegram Channel to get latest updates Join @FzGroup

Follow us on Twitter to get latest updates Follow @FzGroup

We have exciting news:
1. The error on search result page which showed every movie as BluRayExt has been fixed. The quality of movie we have is shown correctly now.

2. We have divided movie list into multiple pages, So the loading time will decrease considerably.

— FzMovies (@FzGroup) September 22, 2018
Loading...


MobileTVshows - TV shows / cartoons for mobiles in avi and mp4....http://www.mobiletvshows.net


Mediainfo Stop Over in Hell

Stop Over in Hell (in Hollywood Movies)
File: Stop_Over_in_Hell_BluRay_001.3gp
File Size: 73 MB


General

Complete name : Stop_Over_in_Hell_BluRay_001.3gp
Format : MPEG-4
Format profile : 3GPP Media Release 5
Codec ID : 3gp5 (isom/3gp5/3gp4/mp41/mp42)
File size : 73.4 MiB
Duration : 49 min 32 s
Overall bit rate mode : Constant
Overall bit rate : 207 kb/s
Encoded date : UTC 2018-02-12 23:57:59
Tagged date : UTC 2018-02-12 23:57:59

Video

ID : 1
Format : MPEG-4 Visual
Format profile : [email protected]
Format settings, BVOP : No
Format settings, QPel : No
Format settings, GMC : No warppoints
Format settings, Matrix : Default (H.263)
Codec ID : mp4v-20
Duration : 49 min 32 s
Bit rate mode : Constant
Bit rate : 170 kb/s
Width : 320 pixels
Height : 240 pixels
Display aspect ratio : 3.000
Frame rate mode : Constant
Frame rate : 23.976 (24000/1001) FPS
Color space : YUV
Chroma subsampling : 4:2:0
Bit depth : 8 bits
Scan type : Progressive
Compression mode : Lossy
Bits/(Pixel*Frame) : 0.092
Stream size : 60.7 MiB (83%)
Writing library : Lavc58.9.100
Language : English
Tagged date : UTC 2018-02-12 23:58:09

Audio

ID : 2
Format : AAC
Format/Info : Advanced Audio Codec
Format profile : LC
Codec ID : mp4a-40-2
Duration : 49 min 32 s
Bit rate mode : Constant
Bit rate : 32.0 kb/s
Channel(s) : 2 channels
Channel(s)_Original : 1 channel
Channel positions : Front: C
Sampling rate : 44.1 kHz
Frame rate : 43.066 FPS (1024 SPF)
Compression mode : Lossy
Stream size : 11.3 MiB (15%)
Language : English
Default : Yes
Alternate group : 1
Tagged date : UTC 2018-02-12 23:58:09

Menu

00:00:00.000 : 00:00:00.000
00:03:49.521 : 00:03:49.521
00:14:04.302 : 00:14:04.302
00:22:32.643 : 00:22:32.643
00:31:29.763 : 00:31:29.763
00:37:31.624 : 00:37:31.624
00:42:37.180 : 00:42:37.180
00:48:32.159 : 00:48:32.159

Download Stop Over in Hell ()

Stop Over in Hell (in Hollywood Movies)
File: Stop_Over_in_Hell_BluRay_001.3gp
File Size: 73 MB
Loading...