Welcome to FzMovies

The Best destination for Mobile/Tablet Movies


Join our Telegram Channel to get latest updates Join @FzGroup

Follow us on Instagram @FzMovie

Follow us on Twitter to get latest updates Follow @FzGroup
Loading...

If you're using Opera/UC Browser (or other non mainstream browsers) and having trouble browsing the website smoothly, Here is a solution:

Disable the Data Saver/AdBlock in your browser and use the following links:https://t.co/ES3L3Frnt2https://t.co/ecm0fFCPWK

— FzMovies (@FzGroup) November 28, 2018

MobileTVshows - TV shows / cartoons for mobiles in avi and mp4....http://www.mobiletvshows.net


Mediainfo Dance

Dance (in Hollywood Movies)
File: Dance_WEB-DL_high.mp4
File Size: 165 MB


General

Complete name : Dance_WEB-DL_high.mp4
Format : MPEG-4
Format profile : Base Media
Codec ID : isom (isom/iso2/avc1/mp41)
File size : 165 MiB
Duration : 1 h 8 min
Overall bit rate mode : Variable
Overall bit rate : 339 kb/s
Writing application : Lavf58.17.101

Video

ID : 1
Format : AVC
Format/Info : Advanced Video Codec
Format profile : [email protected]
Format settings : CABAC / 5 Ref Frames
Format settings, CABAC : Yes
Format settings, ReFrames : 5 frames
Codec ID : avc1
Codec ID/Info : Advanced Video Coding
Duration : 1 h 8 min
Bit rate : 270 kb/s
Width : 640 pixels
Height : 356 pixels
Display aspect ratio : 16:9
Frame rate mode : Constant
Frame rate : 23.976 (24000/1001) FPS
Color space : YUV
Chroma subsampling : 4:2:0
Bit depth : 8 bits
Scan type : Progressive
Bits/(Pixel*Frame) : 0.049
Stream size : 132 MiB (80%)
Writing library : x264 core 157
Encoding settings : cabac=1 / ref=5 / deblock=1:-1:-1 / analyse=0x3:0x113 / me=hex / subme=8 / psy=1 / psy_rd=1.00:0.15 / mixed_ref=1 / me_range=16 / chroma_me=1 / trellis=2 / 8x8dct=1 / cqm=0 / deadzone=21,11 / fast_pskip=1 / chroma_qp_offset=-3 / threads=11 / lookahead_threads=1 / sliced_threads=0 / nr=0 / decimate=1 / interlaced=0 / bluray_compat=0 / constrained_intra=0 / bframes=3 / b_pyramid=2 / b_adapt=1 / b_bias=0 / direct=3 / weightb=1 / open_gop=0 / weightp=2 / keyint=250 / keyint_min=23 / scenecut=40 / intra_refresh=0 / rc_lookahead=50 / rc=2pass / mbtree=1 / bitrate=270 / ratetol=1.0 / qcomp=0.60 / qpmin=0 / qpmax=69 / qpstep=4 / cplxblur=20.0 / qblur=0.5 / ip_ratio=1.40 / aq=1:1.00
Language : English
Menus : 3
Codec configuration box : avcC

Audio

ID : 2
Format : AAC LC SBR
Format/Info : Advanced Audio Codec Low Complexity with Spectral Band Replication
Commercial name : HE-AAC
Format settings : NBC
Codec ID : mp4a-40-5
Duration : 1 h 8 min
Duration_LastFrame : -22 ms
Bit rate mode : Variable
Bit rate : 64.0 kb/s
Maximum bit rate : 96.0 kb/s
Channel(s) : 1 channel
Channel layout : C
Sampling rate : 44.1 kHz
Frame rate : 21.533 FPS (2048 SPF)
Compression mode : Lossy
Stream size : 31.2 MiB (19%)
Language : English
Default : Yes
Alternate group : 1
Menus : 3

Menu #1

ID : 3
Codec ID : text
Duration : 1 h 8 min
Language : English
Menu For : 1,2
00:00:00.000 : Chapter 1
00:02:03.123 : Chapter 2
00:06:57.417 : Chapter 3
00:11:09.669 : Chapter 4
00:17:17.036 : Chapter 5
00:20:01.200 : Chapter 6
00:22:48.366 : Chapter 7
00:27:01.618 : Chapter 8
00:31:02.859 : Chapter 9
00:33:32.007 : Chapter 10
00:36:24.179 : Chapter 11
00:38:35.309 : Chapter 12
00:42:04.517 : Chapter 13
00:44:26.658 : Chapter 14
00:47:26.837 : Chapter 15
00:50:25.014 : Chapter 16
00:51:54.102 : Chapter 17
00:57:33.440 : Chapter 18
01:00:36.623 : Chapter 19
01:03:46.813 : Chapter 20
01:05:52.939 : Chapter 21
Bit rate mode : VBR

Menu #2

00:00:00.000 : Chapter 1
00:02:03.123 : Chapter 2
00:06:57.417 : Chapter 3
00:11:09.669 : Chapter 4
00:17:17.036 : Chapter 5
00:20:01.200 : Chapter 6
00:22:48.366 : Chapter 7
00:27:01.618 : Chapter 8
00:31:02.859 : Chapter 9
00:33:32.007 : Chapter 10
00:36:24.179 : Chapter 11
00:38:35.309 : Chapter 12
00:42:04.517 : Chapter 13
00:44:26.658 : Chapter 14
00:47:26.837 : Chapter 15
00:50:25.014 : Chapter 16
00:51:54.102 : Chapter 17
00:57:33.440 : Chapter 18
01:00:36.623 : Chapter 19
01:03:46.813 : Chapter 20
01:05:52.939 : Chapter 21

Download Dance ()

Dance (in Hollywood Movies)
File: Dance_WEB-DL_high.mp4
File Size: 165 MB
Loading...