Welcome to FzMovies

The Best destination for Mobile/Tablet Movies


Join our Telegram Channel to get latest updates Join @FzGroup

Follow us on Instagram @FzMovie

Follow us on Twitter to get latest updates Follow @FzGroup
Loading...

If you're using Opera/UC Browser (or other non mainstream browsers) and having trouble browsing the website smoothly, Here is a solution:

Disable the Data Saver/AdBlock in your browser and use the following links:https://t.co/ES3L3Frnt2https://t.co/ecm0fFCPWK

— FzMovies (@FzGroup) November 28, 2018

MobileTVshows - TV shows / cartoons for mobiles in avi and mp4....http://www.mobiletvshows.net


Mediainfo Rapid Fire

Rapid Fire (in Hollywood Movies)
File: Rapid_Fire_BluRay_high.mp4
File Size: 231 MB


General

Complete name : Rapid_Fire_BluRay_high.mp4
Format : MPEG-4
Format profile : Base Media
Codec ID : isom (isom/iso2/avc1/mp41)
File size : 231 MiB
Duration : 1 h 35 min
Overall bit rate mode : Variable
Overall bit rate : 339 kb/s
Movie name : Rapid Fire 1992 BluRay 10Bit 1080p DD2.0 H265-d3g
Writing application : Lavf58.3.100

Video

ID : 1
Format : AVC
Format/Info : Advanced Video Codec
Format profile : [email protected]
Format settings : CABAC / 5 Ref Frames
Format settings, CABAC : Yes
Format settings, ReFrames : 5 frames
Codec ID : avc1
Codec ID/Info : Advanced Video Coding
Duration : 1 h 35 min
Bit rate : 270 kb/s
Width : 640 pixels
Height : 346 pixels
Display aspect ratio : 1.85:1
Frame rate mode : Constant
Frame rate : 23.976 (24000/1001) FPS
Color space : YUV
Chroma subsampling : 4:2:0
Bit depth : 8 bits
Scan type : Progressive
Bits/(Pixel*Frame) : 0.051
Stream size : 184 MiB (80%)
Writing library : x264 core 148 r2 7599210
Encoding settings : cabac=1 / ref=5 / deblock=1:-1:-1 / analyse=0x3:0x113 / me=umh / subme=8 / psy=1 / psy_rd=1.00:0.15 / mixed_ref=1 / me_range=16 / chroma_me=1 / trellis=1 / 8x8dct=1 / cqm=0 / deadzone=21,11 / fast_pskip=1 / chroma_qp_offset=-3 / threads=11 / lookahead_threads=1 / sliced_threads=0 / nr=0 / decimate=1 / interlaced=0 / bluray_compat=0 / constrained_intra=0 / bframes=3 / b_pyramid=2 / b_adapt=2 / b_bias=0 / direct=3 / weightb=1 / open_gop=0 / weightp=2 / keyint=250 / keyint_min=23 / scenecut=40 / intra_refresh=0 / rc_lookahead=50 / rc=2pass / mbtree=1 / bitrate=270 / ratetol=1.0 / qcomp=0.60 / qpmin=0 / qpmax=69 / qpstep=4 / cplxblur=20.0 / qblur=0.5 / ip_ratio=1.40 / aq=1:1.00
Menus : 3
Codec configuration box : avcC

Audio

ID : 2
Format : AAC LC SBR
Format/Info : Advanced Audio Codec Low Complexity with Spectral Band Replication
Commercial name : HE-AAC
Format settings : NBC
Codec ID : mp4a-40-5
Duration : 1 h 35 min
Duration_LastFrame : -1 ms
Bit rate mode : Variable
Bit rate : 64.0 kb/s
Maximum bit rate : 96.0 kb/s
Channel(s) : 1 channel
Channel layout : C
Sampling rate : 44.1 kHz
Frame rate : 21.533 FPS (2048 SPF)
Compression mode : Lossy
Stream size : 43.6 MiB (19%)
Language : English
Default : Yes
Alternate group : 1
Menus : 3

Menu #1

ID : 3
Codec ID : text
Duration : 1 h 35 min
Language : English
Bit rate mode : CBR
Menu For : 1,2
00:00:00.000 : (01)00:00:00:000
00:03:51.981 : (02)00:03:51:981
00:07:57.477 : (03)00:07:57:477
00:11:59.093 : (04)00:11:59:093
00:15:47.613 : (05)00:15:47:613
00:20:51.792 : (06)00:20:51:792
00:24:02.732 : (07)00:24:02:732
00:26:50.900 : (08)00:26:50:900
00:31:42.025 : (09)00:31:42:025
00:37:58.609 : (10)00:37:58:609
00:39:36.207 : (11)00:39:36:207
00:43:45.456 : (12)00:43:45:456
00:47:26.927 : (13)00:47:26:927
00:50:03.750 : (14)00:50:03:750
00:55:01.047 : (15)00:55:01:047
01:00:34.881 : (16)01:00:34:881
01:03:10.703 : (17)01:03:10:703
01:07:32.048 : (18)01:07:32:048
01:11:23.362 : (19)01:11:23:362
01:15:33.070 : (20)01:15:33:070
01:20:46.758 : (21)01:20:46:758
01:23:49.899 : (22)01:23:49:899
01:27:22.403 : (23)01:27:22:403
01:30:50.570 : (24)01:30:50:570

Menu #2

00:00:00.000 : (01)00:00:00:000
00:03:51.981 : (02)00:03:51:981
00:07:57.477 : (03)00:07:57:477
00:11:59.093 : (04)00:11:59:093
00:15:47.613 : (05)00:15:47:613
00:20:51.792 : (06)00:20:51:792
00:24:02.732 : (07)00:24:02:732
00:26:50.900 : (08)00:26:50:900
00:31:42.025 : (09)00:31:42:025
00:37:58.609 : (10)00:37:58:609
00:39:36.207 : (11)00:39:36:207
00:43:45.456 : (12)00:43:45:456
00:47:26.927 : (13)00:47:26:927
00:50:03.750 : (14)00:50:03:750
00:55:01.047 : (15)00:55:01:047
01:00:34.881 : (16)01:00:34:881
01:03:10.703 : (17)01:03:10:703
01:07:32.048 : (18)01:07:32:048
01:11:23.362 : (19)01:11:23:362
01:15:33.070 : (20)01:15:33:070
01:20:46.758 : (21)01:20:46:758
01:23:49.899 : (22)01:23:49:899
01:27:22.403 : (23)01:27:22:403
01:30:50.570 : (24)01:30:50:570

Download Rapid Fire ()

Rapid Fire (in Hollywood Movies)
File: Rapid_Fire_BluRay_high.mp4
File Size: 231 MB
Loading...