Welcome to FzMovies

The Best destination for Mobile/Tablet Movies


Join our Telegram Channel to get latest updates Join @FzGroup

Follow us on Instagram @FzMovie

Follow us on Twitter to get latest updates Follow @FzGroup
Loading...

If you're using Opera/UC Browser (or other non mainstream browsers) and having trouble browsing the website smoothly, Here is a solution:

Disable the Data Saver/AdBlock in your browser and use the following links:https://t.co/ES3L3Frnt2https://t.co/ecm0fFCPWK

— FzMovies (@FzGroup) November 28, 2018

MobileTVshows - TV shows / cartoons for mobiles in avi and mp4....http://www.mobiletvshows.net


Mediainfo Prison A Go Go

Prison A Go Go (in Hollywood Movies)
File: Prison_A_Go_Go_DVDRip_high.mp4
File Size: 196 MB


General

Complete name : Prison_A_Go_Go_DVDRip_high.mp4
Format : MPEG-4
Format profile : Base Media
Codec ID : isom (isom/iso2/avc1/mp41)
File size : 196 MiB
Duration : 1 h 24 min
Overall bit rate : 325 kb/s
Writing application : Lavf58.3.100

Video

ID : 1
Format : AVC
Format/Info : Advanced Video Codec
Format profile : [email protected]
Format settings : CABAC / 5 Ref Frames
Format settings, CABAC : Yes
Format settings, ReFrames : 5 frames
Codec ID : avc1
Codec ID/Info : Advanced Video Coding
Duration : 1 h 24 min
Bit rate : 270 kb/s
Width : 640 pixels
Height : 426 pixels
Display aspect ratio : 16:9
Frame rate mode : Constant
Frame rate : 29.970 (30000/1001) FPS
Color space : YUV
Chroma subsampling : 4:2:0
Bit depth : 8 bits
Scan type : Progressive
Bits/(Pixel*Frame) : 0.033
Stream size : 163 MiB (83%)
Writing library : x264 core 148 r2 7599210
Encoding settings : cabac=1 / ref=5 / deblock=1:-1:-1 / analyse=0x3:0x113 / me=umh / subme=8 / psy=1 / psy_rd=1.00:0.15 / mixed_ref=1 / me_range=16 / chroma_me=1 / trellis=1 / 8x8dct=1 / cqm=0 / deadzone=21,11 / fast_pskip=1 / chroma_qp_offset=-3 / threads=13 / lookahead_threads=2 / sliced_threads=0 / nr=0 / decimate=1 / interlaced=0 / bluray_compat=0 / constrained_intra=0 / bframes=3 / b_pyramid=2 / b_adapt=2 / b_bias=0 / direct=3 / weightb=1 / open_gop=0 / weightp=2 / keyint=250 / keyint_min=25 / scenecut=40 / intra_refresh=0 / rc_lookahead=50 / rc=2pass / mbtree=1 / bitrate=270 / ratetol=1.0 / qcomp=0.60 / qpmin=0 / qpmax=69 / qpstep=4 / cplxblur=20.0 / qblur=0.5 / ip_ratio=1.40 / aq=1:1.00
Language : English
Menus : 3
Codec configuration box : avcC

Audio

ID : 2
Format : AAC LC SBR
Format/Info : Advanced Audio Codec Low Complexity with Spectral Band Replication
Commercial name : HE-AAC
Format settings : NBC
Codec ID : mp4a-40-5
Duration : 1 h 24 min
Duration_LastFrame : -32 ms
Bit rate mode : Constant
Bit rate : 48.0 kb/s
Channel(s) : 1 channel
Channel layout : C
Sampling rate : 44.1 kHz
Frame rate : 21.533 FPS (2048 SPF)
Compression mode : Lossy
Stream size : 29.0 MiB (15%)
Language : English
Default : Yes
Alternate group : 1
Menus : 3

Menu #1

ID : 3
Codec ID : text
Duration : 1 h 24 min
Language : English
Bit rate mode : CBR
Menu For : 1,2
00:00:00.000 : Chapter 1
00:01:36.980 : Chapter 2
00:02:43.230 : Chapter 3
00:06:41.785 : Chapter 4
00:12:28.039 : Chapter 5
00:20:56.764 : Chapter 6
00:23:37.633 : Chapter 7
00:26:53.162 : Chapter 8
00:31:19.594 : Chapter 9
00:35:50.949 : Chapter 10
00:39:12.550 : Chapter 11
00:42:38.940 : Chapter 12
00:46:09.150 : Chapter 13
00:49:01.822 : Chapter 14
00:54:49.586 : Chapter 15
00:59:50.470 : Chapter 16
01:06:19.150 : Chapter 17
01:13:10.228 : Chapter 18
01:18:10.402 : Chapter 19
01:21:15.571 : Chapter 20
01:22:20.669 : Chapter 21

Menu #2

00:00:00.000 : Chapter 1
00:01:36.980 : Chapter 2
00:02:43.229 : Chapter 3
00:06:41.784 : Chapter 4
00:12:28.038 : Chapter 5
00:20:56.763 : Chapter 6
00:23:37.632 : Chapter 7
00:26:53.161 : Chapter 8
00:31:19.594 : Chapter 9
00:35:50.948 : Chapter 10
00:39:12.550 : Chapter 11
00:42:38.939 : Chapter 12
00:46:09.149 : Chapter 13
00:49:01.822 : Chapter 14
00:54:49.586 : Chapter 15
00:59:50.470 : Chapter 16
01:06:19.150 : Chapter 17
01:13:10.227 : Chapter 18
01:18:10.402 : Chapter 19
01:21:15.570 : Chapter 20
01:22:20.669 : Chapter 21

Download Prison A Go Go ()

Prison A Go Go (in Hollywood Movies)
File: Prison_A_Go_Go_DVDRip_high.mp4
File Size: 196 MB
Loading...