Welcome to FzMovies

The Best destination for Mobile/Tablet Movies


Join our Telegram Channel to get latest updates Join @FzGroup

Follow us on Instagram @FzMovie

Follow us on Twitter to get latest updates Follow @FzGroup
Loading...

If you're using Opera/UC Browser (or other non mainstream browsers) and having trouble browsing the website smoothly, Here is a solution:

Disable the Data Saver/AdBlock in your browser and use the following links:https://t.co/ES3L3Frnt2https://t.co/ecm0fFCPWK

— FzMovies (@FzGroup) November 28, 2018

MobileTVshows - TV shows / cartoons for mobiles in avi and mp4....http://www.mobiletvshows.net


Mediainfo Finding Dory

Finding Dory (in Hollywood Movies)
File: Finding_Dory_BluRay_high.mp4
File Size: 225 MB


General

Complete name : Finding_Dory_BluRay_high.mp4
Format : MPEG-4
Format profile : Base Media
Codec ID : isom (isom/iso2/avc1/mp41)
File size : 225 MiB
Duration : 1 h 37 min
Overall bit rate : 324 kb/s
Movie name : Finding Dory 2016 BluRay 720p DTS AC3 x264-ETRG (MgB)
Writing application : Lavf58.3.100

Video

ID : 1
Format : AVC
Format/Info : Advanced Video Codec
Format profile : [email protected]
Format settings : CABAC / 5 Ref Frames
Format settings, CABAC : Yes
Format settings, ReFrames : 5 frames
Codec ID : avc1
Codec ID/Info : Advanced Video Coding
Duration : 1 h 37 min
Bit rate : 270 kb/s
Width : 640 pixels
Height : 360 pixels
Display aspect ratio : 16:9
Frame rate mode : Constant
Frame rate : 23.976 (23976/1000) FPS
Color space : YUV
Chroma subsampling : 4:2:0
Bit depth : 8 bits
Scan type : Progressive
Bits/(Pixel*Frame) : 0.049
Stream size : 187 MiB (83%)
Title : Finding Dory 2016 By MgB
Writing library : x264 core 148 r2 7599210
Encoding settings : cabac=1 / ref=5 / deblock=1:-1:-1 / analyse=0x3:0x113 / me=umh / subme=8 / psy=1 / psy_rd=1.00:0.15 / mixed_ref=1 / me_range=16 / chroma_me=1 / trellis=1 / 8x8dct=1 / cqm=0 / deadzone=21,11 / fast_pskip=1 / chroma_qp_offset=-3 / threads=11 / lookahead_threads=1 / sliced_threads=0 / nr=0 / decimate=1 / interlaced=0 / bluray_compat=0 / constrained_intra=0 / bframes=3 / b_pyramid=2 / b_adapt=2 / b_bias=0 / direct=3 / weightb=1 / open_gop=0 / weightp=2 / keyint=250 / keyint_min=23 / scenecut=40 / intra_refresh=0 / rc_lookahead=50 / rc=2pass / mbtree=1 / bitrate=270 / ratetol=1.0 / qcomp=0.60 / qpmin=0 / qpmax=69 / qpstep=4 / cplxblur=20.0 / qblur=0.5 / ip_ratio=1.40 / aq=1:1.00
Language : English
Menus : 3
Codec configuration box : avcC

Audio

ID : 2
Format : AAC LC SBR
Format/Info : Advanced Audio Codec Low Complexity with Spectral Band Replication
Commercial name : HE-AAC
Format settings : NBC
Codec ID : mp4a-40-5
Duration : 1 h 37 min
Bit rate mode : Constant
Bit rate : 48.0 kb/s
Channel(s) : 1 channel
Channel layout : C
Sampling rate : 44.1 kHz
Frame rate : 21.533 FPS (2048 SPF)
Compression mode : Lossy
Stream size : 33.3 MiB (15%)
Title : DTS 5.1 @ 755 Kbps
Language : English
Default : Yes
Alternate group : 1
Menus : 3

Menu #1

ID : 3
Codec ID : text
Duration : 1 h 37 min
Language : English
Menu For : 1,2
00:00:00.000 : Chapter 1
00:02:35.822 : Chapter 2
00:06:50.410 : Chapter 3
00:10:53.277 : Chapter 4
00:13:33.270 : Chapter 5
00:15:25.216 : Chapter 6
00:17:03.564 : Chapter 7
00:19:35.549 : Chapter 8
00:21:35.419 : Chapter 9
00:24:58.788 : Chapter 10
00:27:08.627 : Chapter 11
00:30:33.331 : Chapter 12
00:35:00.389 : Chapter 13
00:37:52.186 : Chapter 14
00:40:18.165 : Chapter 15
00:41:06.839 : Chapter 16
00:42:30.506 : Chapter 17
00:46:03.510 : Chapter 18
00:48:41.918 : Chapter 19
00:50:27.941 : Chapter 20
00:55:06.928 : Chapter 21
00:57:05.964 : Chapter 22
01:00:41.429 : Chapter 23
01:04:33.077 : Chapter 24
01:10:36.899 : Chapter 25
01:12:28.385 : Chapter 26
01:14:09.945 : Chapter 27
01:18:26.576 : Chapter 28
01:26:49.537 : Chapter 29
Bit rate mode : VBR

Menu #2

00:00:00.000 : Chapter 1
00:02:35.822 : Chapter 2
00:06:50.410 : Chapter 3
00:10:53.277 : Chapter 4
00:13:33.270 : Chapter 5
00:15:25.216 : Chapter 6
00:17:03.564 : Chapter 7
00:19:35.549 : Chapter 8
00:21:35.419 : Chapter 9
00:24:58.788 : Chapter 10
00:27:08.627 : Chapter 11
00:30:33.331 : Chapter 12
00:35:00.389 : Chapter 13
00:37:52.186 : Chapter 14
00:40:18.165 : Chapter 15
00:41:06.839 : Chapter 16
00:42:30.506 : Chapter 17
00:46:03.510 : Chapter 18
00:48:41.918 : Chapter 19
00:50:27.941 : Chapter 20
00:55:06.928 : Chapter 21
00:57:05.964 : Chapter 22
01:00:41.429 : Chapter 23
01:04:33.077 : Chapter 24
01:10:36.899 : Chapter 25
01:12:28.385 : Chapter 26
01:14:09.945 : Chapter 27
01:18:26.576 : Chapter 28
01:26:49.537 : Chapter 29

Download Finding Dory ()

Finding Dory (in Hollywood Movies)
File: Finding_Dory_BluRay_high.mp4
File Size: 225 MB
Loading...