Welcome to FzMovies

The Best destination for Mobile/Tablet Movies


Join our Telegram Channel to get latest updates Join @FzGroup

Follow us on Twitter to get latest updates Follow @FzGroup
                 Loading...                  



                 Loading...                  
Mediainfo West of Her

West of Her (in Hollywood Movies)
File: West_of_Her_BluRay_high.mp4
File Size: 201 MB


General

Complete name : West_of_Her_BluRay_high.mp4
Format : MPEG-4
Format profile : Base Media
Codec ID : isom (isom/iso2/avc1/mp41)
File size : 201 MiB
Duration : 1 h 27 min
Overall bit rate : 323 kb/s
Movie name : West of Her 2016 BluRay 10Bit 1080p DD5.1 H265-d3g
Writing application : Lavf58.3.100

Video

ID : 1
Format : AVC
Format/Info : Advanced Video Codec
Format profile : [email protected]
Format settings : CABAC / 5 Ref Frames
Format settings, CABAC : Yes
Format settings, ReFrames : 5 frames
Codec ID : avc1
Codec ID/Info : Advanced Video Coding
Duration : 1 h 27 min
Bit rate : 270 kb/s
Width : 640 pixels
Height : 268 pixels
Display aspect ratio : 2.40:1
Frame rate mode : Constant
Frame rate : 23.976 (24000/1001) FPS
Color space : YUV
Chroma subsampling : 4:2:0
Bit depth : 8 bits
Scan type : Progressive
Bits/(Pixel*Frame) : 0.066
Stream size : 169 MiB (84%)
Writing library : x264 core 148 r2 7599210
Encoding settings : cabac=1 / ref=5 / deblock=1:-1:-1 / analyse=0x3:0x113 / me=umh / subme=8 / psy=1 / psy_rd=1.00:0.15 / mixed_ref=1 / me_range=16 / chroma_me=1 / trellis=1 / 8x8dct=1 / cqm=0 / deadzone=21,11 / fast_pskip=1 / chroma_qp_offset=-3 / threads=8 / lookahead_threads=1 / sliced_threads=0 / nr=0 / decimate=1 / interlaced=0 / bluray_compat=0 / constrained_intra=0 / bframes=3 / b_pyramid=2 / b_adapt=2 / b_bias=0 / direct=3 / weightb=1 / open_gop=0 / weightp=2 / keyint=250 / keyint_min=23 / scenecut=40 / intra_refresh=0 / rc_lookahead=50 / rc=2pass / mbtree=1 / bitrate=270 / ratetol=1.0 / qcomp=0.60 / qpmin=0 / qpmax=69 / qpstep=4 / cplxblur=20.0 / qblur=0.5 / ip_ratio=1.40 / aq=1:1.00
Menus : 3

Audio

ID : 2
Format : AAC
Format/Info : Advanced Audio Codec
Format profile : HE-AAC / LC
Format settings : NBC
Codec ID : mp4a-40-5
Duration : 1 h 27 min
Duration_LastFrame : -19 ms
Bit rate mode : Constant
Bit rate : 48.0 kb/s
Channel(s) : 2 channels
Channel(s)_Original : 1 channel
Channel positions : Front: C
Sampling rate : 44.1 kHz / 22.05 kHz
Frame rate : 21.533 FPS (1024 SPF)
Compression mode : Lossy
Stream size : 30.0 MiB (15%)
Language : English
Default : Yes
Alternate group : 1
Menus : 3

Menu #1

ID : 3
Codec ID : text
Duration : 1 h 27 min
Language : English
Bit rate mode : CBR
Menu For : 1,2
00:00:00.000 : (01)00:00:00:000
00:10:54.278 : (02)00:10:54:278
00:19:38.427 : (03)00:19:38:427
00:29:10.498 : (04)00:29:10:498
00:39:20.566 : (05)00:39:20:566
00:51:10.358 : (06)00:51:10:358
01:03:30.890 : (07)01:03:30:890
01:13:26.860 : (08)01:13:26:860
01:27:15.396 : (09)01:27:15:396

Menu #2

00:00:00.000 : (01)00:00:00:000
00:10:54.278 : (02)00:10:54:278
00:19:38.427 : (03)00:19:38:427
00:29:10.498 : (04)00:29:10:498
00:39:20.566 : (05)00:39:20:566
00:51:10.358 : (06)00:51:10:358
01:03:30.890 : (07)01:03:30:890
01:13:26.860 : (08)01:13:26:860
01:27:15.396 : (09)01:27:15:396

Download West of Her ()

West of Her (in Hollywood Movies)
                 Loading...