Welcome to FzMovies

The Best destination for Mobile/Tablet Movies


Join our Telegram Channel to get latest updates Join @FzGroup

Follow us on Instagram @FzMovie

Follow us on Twitter to get latest updates Follow @FzGroup
Loading...

If you're using Opera/UC Browser (or other non mainstream browsers) and having trouble browsing the website smoothly, Here is a solution:

Disable the Data Saver/AdBlock in your browser and use the following links:https://t.co/ES3L3Frnt2https://t.co/ecm0fFCPWK

— FzMovies (@FzGroup) November 28, 2018

MobileTVshows - TV shows / cartoons for mobiles in avi and mp4....http://www.mobiletvshows.net


Mediainfo Daddys Home 2

Daddys Home 2 (in Hollywood Movies)
File: Daddys_Home_2_BluRay_high.mp4
File Size: 230 MB


General

Complete name : Daddys_Home_2_BluRay_high.mp4
Format : MPEG-4
Format profile : Base Media
Codec ID : isom (isom/iso2/avc1/mp41)
File size : 230 MiB
Duration : 1 h 39 min
Overall bit rate : 323 kb/s
Writing application : Lavf58.3.100

Video

ID : 1
Format : AVC
Format/Info : Advanced Video Codec
Format profile : [email protected]
Format settings : CABAC / 5 Ref Frames
Format settings, CABAC : Yes
Format settings, ReFrames : 5 frames
Codec ID : avc1
Codec ID/Info : Advanced Video Coding
Duration : 1 h 39 min
Bit rate : 270 kb/s
Width : 640 pixels
Height : 360 pixels
Display aspect ratio : 16:9
Frame rate mode : Constant
Frame rate : 23.976 (24000/1001) FPS
Color space : YUV
Chroma subsampling : 4:2:0
Bit depth : 8 bits
Scan type : Progressive
Bits/(Pixel*Frame) : 0.049
Stream size : 192 MiB (84%)
Writing library : x264 core 148 r2 7599210
Encoding settings : cabac=1 / ref=5 / deblock=1:-1:-1 / analyse=0x3:0x113 / me=umh / subme=8 / psy=1 / psy_rd=1.00:0.15 / mixed_ref=1 / me_range=16 / chroma_me=1 / trellis=1 / 8x8dct=1 / cqm=0 / deadzone=21,11 / fast_pskip=1 / chroma_qp_offset=-3 / threads=11 / lookahead_threads=1 / sliced_threads=0 / nr=0 / decimate=1 / interlaced=0 / bluray_compat=0 / constrained_intra=0 / bframes=3 / b_pyramid=2 / b_adapt=2 / b_bias=0 / direct=3 / weightb=1 / open_gop=0 / weightp=2 / keyint=250 / keyint_min=23 / scenecut=40 / intra_refresh=0 / rc_lookahead=50 / rc=2pass / mbtree=1 / bitrate=270 / ratetol=1.0 / qcomp=0.60 / qpmin=0 / qpmax=69 / qpstep=4 / cplxblur=20.0 / qblur=0.5 / ip_ratio=1.40 / aq=1:1.00
Language : English
Menus : 3
Codec configuration box : avcC

Audio

ID : 2
Format : AAC LC SBR
Format/Info : Advanced Audio Codec Low Complexity with Spectral Band Replication
Commercial name : HE-AAC
Format settings : NBC
Codec ID : mp4a-40-5
Duration : 1 h 39 min
Duration_LastFrame : -44 ms
Bit rate mode : Constant
Bit rate : 48.0 kb/s
Channel(s) : 1 channel
Channel layout : C
Sampling rate : 44.1 kHz
Frame rate : 21.533 FPS (2048 SPF)
Compression mode : Lossy
Stream size : 34.2 MiB (15%)
Language : English
Default : Yes
Alternate group : 1
Menus : 3

Menu #1

ID : 3
Codec ID : text
Duration : 1 h 39 min
Language : English
Bit rate mode : CBR
Menu For : 1,2
00:00:00.000 : 00:00:00.000
00:08:08.530 : 00:08:08.530
00:16:08.092 : 00:16:08.092
00:21:44.053 : 00:21:44.053
00:27:40.158 : 00:27:40.158
00:32:47.424 : 00:32:47.424
00:40:49.030 : 00:40:49.030
00:47:57.166 : 00:47:57.166
00:52:27.895 : 00:52:27.895
01:00:08.730 : 01:00:08.730
01:08:37.363 : 01:08:37.363
01:15:23.102 : 01:15:23.102
01:26:24.846 : 01:26:24.846
01:33:34.943 : 01:33:34.943

Menu #2

00:00:00.000 : 00:00:00.000
00:08:08.530 : 00:08:08.530
00:16:08.092 : 00:16:08.092
00:21:44.053 : 00:21:44.053
00:27:40.158 : 00:27:40.158
00:32:47.424 : 00:32:47.424
00:40:49.030 : 00:40:49.030
00:47:57.166 : 00:47:57.166
00:52:27.895 : 00:52:27.895
01:00:08.730 : 01:00:08.730
01:08:37.363 : 01:08:37.363
01:15:23.102 : 01:15:23.102
01:26:24.846 : 01:26:24.846
01:33:34.943 : 01:33:34.943

Download Daddys Home 2 ()

Daddys Home 2 (in Hollywood Movies)
File: Daddys_Home_2_BluRay_high.mp4
File Size: 230 MB
Loading...