Welcome to FzMovies

The Best destination for Mobile/Tablet Movies


Join our Telegram Channel to get latest updates Join @FzGroup

Follow us on Twitter to get latest updates Follow @FzGroup
                 Loading...                  



                 Loading...                  
Mediainfo Judwaa 2

Judwaa 2 (in Bollywood Movies)
File: Judwaa_2_2017_BluRay_high.mp4
File Size: 338 MB


General

Complete name : Judwaa_2_2017_BluRay_high.mp4
Format : MPEG-4
Format profile : Base Media
Codec ID : isom (isom/iso2/avc1/mp41)
File size : 338 MiB
Duration : 2 h 25 min
Overall bit rate : 324 kb/s
Movie name : JUDWAA 2 2017 - [email protected] @ Hon3y
Writing application : Lavf58.3.100

Video

ID : 1
Format : AVC
Format/Info : Advanced Video Codec
Format profile : [email protected]
Format settings : CABAC / 5 Ref Frames
Format settings, CABAC : Yes
Format settings, ReFrames : 5 frames
Codec ID : avc1
Codec ID/Info : Advanced Video Coding
Duration : 2 h 25 min
Bit rate : 270 kb/s
Width : 640 pixels
Height : 266 pixels
Display aspect ratio : 2.40:1
Original display aspect ratio : 2.40:1
Frame rate mode : Constant
Frame rate : 24.000 FPS
Color space : YUV
Chroma subsampling : 4:2:0
Bit depth : 8 bits
Scan type : Progressive
Bits/(Pixel*Frame) : 0.066
Stream size : 282 MiB (83%)
Writing library : x264 core 148 r2 7599210
Encoding settings : cabac=1 / ref=5 / deblock=1:-1:-1 / analyse=0x3:0x113 / me=umh / subme=8 / psy=1 / psy_rd=1.00:0.15 / mixed_ref=1 / me_range=16 / chroma_me=1 / trellis=1 / 8x8dct=1 / cqm=0 / deadzone=21,11 / fast_pskip=1 / chroma_qp_offset=-3 / threads=8 / lookahead_threads=1 / sliced_threads=0 / nr=0 / decimate=1 / interlaced=0 / bluray_compat=0 / constrained_intra=0 / bframes=3 / b_pyramid=2 / b_adapt=2 / b_bias=0 / direct=3 / weightb=1 / open_gop=0 / weightp=2 / keyint=250 / keyint_min=24 / scenecut=40 / intra_refresh=0 / rc_lookahead=50 / rc=2pass / mbtree=1 / bitrate=270 / ratetol=1.0 / qcomp=0.60 / qpmin=0 / qpmax=69 / qpstep=4 / cplxblur=20.0 / qblur=0.5 / ip_ratio=1.40 / aq=1:1.00
Language : Hindi
Menus : 3

Audio

ID : 2
Format : AAC
Format/Info : Advanced Audio Codec
Format profile : HE-AAC / LC
Format settings : NBC
Codec ID : mp4a-40-5
Duration : 2 h 25 min
Bit rate mode : Constant
Bit rate : 48.0 kb/s
Channel(s) : 2 channels
Channel(s)_Original : 1 channel
Channel positions : Front: C
Sampling rate : 44.1 kHz / 22.05 kHz
Frame rate : 21.533 FPS (1024 SPF)
Compression mode : Lossy
Stream size : 50.1 MiB (15%)
Language : Hindi
Default : Yes
Alternate group : 1
Menus : 3

Menu #1

ID : 3
Codec ID : text
Duration : 2 h 25 min
Language : English
Menu For : 1,2
00:00:00.000 : Chapter 1
00:06:24.333 : Chapter 2
00:13:17.500 : Chapter 3
00:18:07.583 : Chapter 4
00:22:07.958 : Chapter 5
00:26:15.500 : Chapter 6
00:33:05.166 : Chapter 7
00:38:42.041 : Chapter 8
00:42:37.083 : Chapter 9
00:50:16.958 : Chapter 10
00:58:35.458 : Chapter 11
01:02:12.625 : Chapter 12
01:04:57.958 : Chapter 13
01:14:02.750 : Chapter 14
01:25:05.500 : Chapter 15
01:31:35.875 : Chapter 16
01:38:27.333 : Chapter 17
01:42:11.500 : Chapter 18
01:46:38.708 : Chapter 19
01:58:06.416 : Chapter 20
02:02:25.958 : Chapter 21
02:07:57.041 : Chapter 22
02:18:25.583 : Chapter 23
Bit rate mode : VBR

Menu #2

00:00:00.000 : Chapter 1
00:06:24.333 : Chapter 2
00:13:17.500 : Chapter 3
00:18:07.583 : Chapter 4
00:22:07.958 : Chapter 5
00:26:15.500 : Chapter 6
00:33:05.166 : Chapter 7
00:38:42.041 : Chapter 8
00:42:37.083 : Chapter 9
00:50:16.958 : Chapter 10
00:58:35.458 : Chapter 11
01:02:12.625 : Chapter 12
01:04:57.958 : Chapter 13
01:14:02.750 : Chapter 14
01:25:05.500 : Chapter 15
01:31:35.875 : Chapter 16
01:38:27.333 : Chapter 17
01:42:11.500 : Chapter 18
01:46:38.708 : Chapter 19
01:58:06.416 : Chapter 20
02:02:25.958 : Chapter 21
02:07:57.041 : Chapter 22
02:18:25.583 : Chapter 23

Download Judwaa 2 ()

Judwaa 2 (in Bollywood Movies)
                 Loading...