Welcome to FzMovies

The Best destination for Mobile/Tablet Movies


Join our Telegram Channel to get latest updates Join @FzGroup

Follow us on Twitter to get latest updates Follow @FzGroup

We have exciting news:
1. The error on search result page which showed every movie as BluRayExt has been fixed. The quality of movie we have is shown correctly now.

2. We have divided movie list into multiple pages, So the loading time will decrease considerably.

— FzMovies (@FzGroup) September 22, 2018
Loading...


MobileTVshows - TV shows / cartoons for mobiles in avi and mp4....http://www.mobiletvshows.net


Mediainfo Toilet Ek Prem Katha

Toilet Ek Prem Katha (in Bollywood Movies)
File: Toilet__Ek_Prem_Katha_2017_BluRay_high.mp4
File Size: 354 MB


General

Complete name : Toilet__Ek_Prem_Katha_2017_BluRay_high.mp4
Format : MPEG-4
Format profile : Base Media
Codec ID : isom (isom/iso2/avc1/mp41)
File size : 354 MiB
Duration : 2 h 33 min
Overall bit rate : 323 kb/s
Writing application : Lavf58.3.100

Video

ID : 1
Format : AVC
Format/Info : Advanced Video Codec
Format profile : [email protected]
Format settings : CABAC / 5 Ref Frames
Format settings, CABAC : Yes
Format settings, ReFrames : 5 frames
Codec ID : avc1
Codec ID/Info : Advanced Video Coding
Duration : 2 h 33 min
Bit rate : 270 kb/s
Width : 640 pixels
Height : 272 pixels
Display aspect ratio : 2.35:1
Frame rate mode : Constant
Frame rate : 24.000 FPS
Color space : YUV
Chroma subsampling : 4:2:0
Bit depth : 8 bits
Scan type : Progressive
Bits/(Pixel*Frame) : 0.065
Stream size : 296 MiB (84%)
Writing library : x264 core 148 r2 7599210
Encoding settings : cabac=1 / ref=5 / deblock=1:-1:-1 / analyse=0x3:0x113 / me=umh / subme=8 / psy=1 / psy_rd=1.00:0.15 / mixed_ref=1 / me_range=16 / chroma_me=1 / trellis=1 / 8x8dct=1 / cqm=0 / deadzone=21,11 / fast_pskip=1 / chroma_qp_offset=-3 / threads=8 / lookahead_threads=1 / sliced_threads=0 / nr=0 / decimate=1 / interlaced=0 / bluray_compat=0 / constrained_intra=0 / bframes=3 / b_pyramid=2 / b_adapt=2 / b_bias=0 / direct=3 / weightb=1 / open_gop=0 / weightp=2 / keyint=250 / keyint_min=24 / scenecut=40 / intra_refresh=0 / rc_lookahead=50 / rc=2pass / mbtree=1 / bitrate=270 / ratetol=1.0 / qcomp=0.60 / qpmin=0 / qpmax=69 / qpstep=4 / cplxblur=20.0 / qblur=0.5 / ip_ratio=1.40 / aq=1:1.00
Language : English
Menus : 3

Audio

ID : 2
Format : AAC
Format/Info : Advanced Audio Codec
Format profile : HE-AAC / LC
Format settings : NBC
Codec ID : mp4a-40-5
Duration : 2 h 33 min
Duration_LastFrame : -4 ms
Bit rate mode : Constant
Bit rate : 48.0 kb/s
Channel(s) : 2 channels
Channel(s)_Original : 1 channel
Channel positions : Front: C
Sampling rate : 44.1 kHz / 22.05 kHz
Frame rate : 21.533 FPS (1024 SPF)
Compression mode : Lossy
Stream size : 52.6 MiB (15%)
Language : English
Default : Yes
Alternate group : 1
Menus : 3

Menu #1

ID : 3
Codec ID : text
Duration : 2 h 33 min
Language : English
Bit rate mode : CBR
Menu For : 1,2
00:00:00.000 : 00:00:00.000
00:09:58.500 : 00:09:58.500
00:16:12.500 : 00:16:12.500
00:22:17.500 : 00:22:17.500
00:24:17.958 : 00:24:17.958
00:37:34.000 : 00:37:34.000
00:44:07.500 : 00:44:07.500
00:46:25.125 : 00:46:25.125
00:51:04.500 : 00:51:04.500
01:02:22.500 : 01:02:22.500
01:13:12.000 : 01:13:12.000
01:16:04.792 : 01:16:04.792
01:24:55.500 : 01:24:55.500
01:36:11.750 : 01:36:11.750
01:40:06.833 : 01:40:06.833
01:50:44.583 : 01:50:44.583
01:58:19.083 : 01:58:19.083
02:01:23.417 : 02:01:23.417
02:05:21.917 : 02:05:21.917
02:31:41.417 : 02:31:41.417

Menu #2

00:00:00.000 : 00:00:00.000
00:09:58.500 : 00:09:58.500
00:16:12.500 : 00:16:12.500
00:22:17.500 : 00:22:17.500
00:24:17.958 : 00:24:17.958
00:37:34.000 : 00:37:34.000
00:44:07.500 : 00:44:07.500
00:46:25.125 : 00:46:25.125
00:51:04.500 : 00:51:04.500
01:02:22.500 : 01:02:22.500
01:13:12.000 : 01:13:12.000
01:16:04.792 : 01:16:04.792
01:24:55.500 : 01:24:55.500
01:36:11.750 : 01:36:11.750
01:40:06.833 : 01:40:06.833
01:50:44.583 : 01:50:44.583
01:58:19.083 : 01:58:19.083
02:01:23.417 : 02:01:23.417
02:05:21.917 : 02:05:21.917
02:31:41.417 : 02:31:41.417

Download Toilet Ek Prem Katha ()

Toilet Ek Prem Katha (in Bollywood Movies)
File: Toilet__Ek_Prem_Katha_2017_BluRay_high.mp4
File Size: 354 MB
Loading...