Welcome to FzMovies

The Best destination for Mobile/Tablet Movies



Like us on Facebook get latest updates

MobileTVshows - TV shows / cartoons for mobiles in avi and mp4....http://www.mobiletvshows.net




Mediainfo Paint It Black 2016

Paint It Black 2016 (in Hollywood Movies)
File: Paint_It_Black_2016_HDRip_high.mp4
File Size: 222 MB


General

Complete name : Paint_It_Black_2016_(2016)_HDRip_high_(fzmovies.net).mp4
Format : MPEG-4
Format profile : Base Media
Codec ID : isom (isom/iso2/avc1/mp41)
File size : 222 MiB
Duration : 1 h 36 min
Overall bit rate : 323 kb/s
Movie name : Manning
Writing application : Lavf57.66.102

Video

ID : 1
Format : AVC
Format/Info : Advanced Video Codec
Format profile : [email protected]
Format settings : CABAC / 5 Ref Frames
Format settings, CABAC : Yes
Format settings, RefFrames : 5 frames
Codec ID : avc1
Codec ID/Info : Advanced Video Coding
Duration : 1 h 36 min
Bit rate : 270 kb/s
Width : 640 pixels
Height : 270 pixels
Display aspect ratio : 2.35:1
Frame rate mode : Constant
Frame rate : 23.976 (24000/1001) FPS
Color space : YUV
Chroma subsampling : 4:2:0
Bit depth : 8 bits
Scan type : Progressive
Bits/(Pixel*Frame) : 0.065
Stream size : 186 MiB (84%)
Writing library : x264 core 148 r2 7599210
Encoding settings : cabac=1 / ref=5 / deblock=1:-1:-1 / analyse=0x3:0x113 / me=umh / subme=8 / psy=1 / psy_rd=1.00:0.15 / mixed_ref=1 / me_range=16 / chroma_me=1 / trellis=1 / 8x8dct=1 / cqm=0 / deadzone=21,11 / fast_pskip=1 / chroma_qp_offset=-3 / threads=8 / lookahead_threads=1 / sliced_threads=0 / nr=0 / decimate=1 / interlaced=0 / bluray_compat=0 / constrained_intra=0 / bframes=3 / b_pyramid=2 / b_adapt=2 / b_bias=0 / direct=3 / weightb=1 / open_gop=0 / weightp=2 / keyint=250 / keyint_min=23 / scenecut=40 / intra_refresh=0 / rc_lookahead=50 / rc=2pass / mbtree=1 / bitrate=270 / ratetol=1.0 / qcomp=0.60 / qpmin=0 / qpmax=69 / qpstep=4 / cplxblur=20.0 / qblur=0.5 / ip_ratio=1.40 / aq=1:1.00
Menus : 3

Audio

ID : 2
Format : AAC
Format/Info : Advanced Audio Codec
Format profile : HE-AAC / LC
Format settings : NBC
Codec ID : mp4a-40-5
Duration : 1 h 36 min
Duration_LastFrame : -45 ms
Bit rate mode : Constant
Bit rate : 48.0 kb/s
Channel(s) : 2 channels
Channel(s)_Original : 1 channel
Channel positions : Front: C
Sampling rate : 44.1 kHz / 22.05 kHz
Frame rate : 21.533 FPS (1024 SPF)
Compression mode : Lossy
Stream size : 33.0 MiB (15%)
Language : English
Default : Yes
Alternate group : 1
Menus : 3

Menu #1

ID : 3
Codec ID : text
Duration : 1 h 36 min
Language : English
Menu For : 1,2
00:00:00.000 : 1
00:01:13.991 : 2
00:16:12.972 : 3
00:25:30.988 : 4
00:35:58.031 : 5
00:46:09.016 : 6
00:56:51.992 : 7
01:08:07.000 : 8
01:20:07.970 : 9
01:31:23.979 : 10
Bit rate mode : VBR

Menu #2

00:00:00.000 : 1
00:01:13.991 : 2
00:16:12.972 : 3
00:25:30.988 : 4
00:35:58.031 : 5
00:46:09.016 : 6
00:56:51.992 : 7
01:08:07.000 : 8
01:20:07.970 : 9
01:31:23.979 : 10

Download Paint It Black 2016 ()

Paint It Black 2016 (in Hollywood Movies)
File: Paint_It_Black_2016_HDRip_high.mp4
File Size: 222 MB