Welcome to FzMovies

The Best destination for Mobile/Tablet Movies


Join our Telegram Channel to get latest updates Join @FzGroup

Follow us on Twitter to get latest updates Follow @FzGroup

We have exciting news:
1. The error on search result page which showed every movie as BluRayExt has been fixed. The quality of movie we have is shown correctly now.

2. We have divided movie list into multiple pages, So the loading time will decrease considerably.

— FzMovies (@FzGroup) September 22, 2018
Loading...


MobileTVshows - TV shows / cartoons for mobiles in avi and mp4....http://www.mobiletvshows.net


Mediainfo Kingdom of the Spiders 1977

Kingdom of the Spiders 1977 (in Hollywood Movies)
File: Kingdom_of_the_Spiders_1977_BluRay_high.mp4
File Size: 220 MB


General

Complete name : Kingdom_of_the_Spiders_1977_BluRay_high.mp4
Format : MPEG-4
Format profile : Base Media
Codec ID : isom (isom/iso2/avc1/mp41)
File size : 220 MiB
Duration : 1 h 35 min
Overall bit rate : 323 kb/s
Movie name : Kingdom.of.the.Spiders.1977.720p.BluRay.x264-x0r
Writing application : Lavf57.66.102

Video

ID : 1
Format : AVC
Format/Info : Advanced Video Codec
Format profile : [email protected]
Format settings : CABAC / 5 Ref Frames
Format settings, CABAC : Yes
Format settings, ReFrames : 5 frames
Codec ID : avc1
Codec ID/Info : Advanced Video Coding
Duration : 1 h 35 min
Bit rate : 270 kb/s
Width : 640 pixels
Height : 360 pixels
Display aspect ratio : 16:9
Frame rate mode : Constant
Frame rate : 23.976 FPS
Color space : YUV
Chroma subsampling : 4:2:0
Bit depth : 8 bits
Scan type : Progressive
Bits/(Pixel*Frame) : 0.049
Stream size : 184 MiB (84%)
Writing library : x264 core 148 r2 7599210
Encoding settings : cabac=1 / ref=5 / deblock=1:-1:-1 / analyse=0x3:0x113 / me=umh / subme=8 / psy=1 / psy_rd=1.00:0.15 / mixed_ref=1 / me_range=16 / chroma_me=1 / trellis=1 / 8x8dct=1 / cqm=0 / deadzone=21,11 / fast_pskip=1 / chroma_qp_offset=-3 / threads=11 / lookahead_threads=1 / sliced_threads=0 / nr=0 / decimate=1 / interlaced=0 / bluray_compat=0 / constrained_intra=0 / bframes=3 / b_pyramid=2 / b_adapt=2 / b_bias=0 / direct=3 / weightb=1 / open_gop=0 / weightp=2 / keyint=250 / keyint_min=23 / scenecut=40 / intra_refresh=0 / rc_lookahead=50 / rc=2pass / mbtree=1 / bitrate=270 / ratetol=1.0 / qcomp=0.60 / qpmin=0 / qpmax=69 / qpstep=4 / cplxblur=20.0 / qblur=0.5 / ip_ratio=1.40 / aq=1:1.00
Language : English
Menus : 3

Audio

ID : 2
Format : AAC
Format/Info : Advanced Audio Codec
Format profile : HE-AAC / LC
Format settings : NBC
Codec ID : mp4a-40-5
Duration : 1 h 35 min
Duration_LastFrame : -12 ms
Bit rate mode : Constant
Bit rate : 48.0 kb/s
Channel(s) : 2 channels
Channel(s)_Original : 1 channel
Channel positions : Front: C
Sampling rate : 44.1 kHz / 22.05 kHz
Frame rate : 21.533 FPS (1024 SPF)
Compression mode : Lossy
Stream size : 32.7 MiB (15%)
Title : Stereo
Language : English
Default : Yes
Alternate group : 1
Menus : 3

Menu #1

ID : 3
Codec ID : text
Duration : 1 h 35 min
Language : English
Menu For : 1,2
00:00:00.000 : Chapter 1
00:06:10.888 : Chapter 2
00:09:48.438 : Chapter 3
00:14:41.147 : Chapter 4
00:18:54.859 : Chapter 5
00:23:06.444 : Chapter 6
00:28:29.433 : Chapter 7
00:35:27.559 : Chapter 8
00:44:18.548 : Chapter 9
00:49:04.667 : Chapter 10
00:55:36.559 : Chapter 11
01:02:18.043 : Chapter 12
01:10:29.826 : Chapter 13
01:17:43.968 : Chapter 14
01:27:52.242 : Chapter 15
01:33:28.703 : Chapter 16
Bit rate mode : VBR

Menu #2

00:00:00.000 : Chapter 1
00:06:10.887 : Chapter 2
00:09:48.438 : Chapter 3
00:14:41.147 : Chapter 4
00:18:54.859 : Chapter 5
00:23:06.443 : Chapter 6
00:28:29.433 : Chapter 7
00:35:27.559 : Chapter 8
00:44:18.547 : Chapter 9
00:49:04.667 : Chapter 10
00:55:36.558 : Chapter 11
01:02:18.042 : Chapter 12
01:10:29.825 : Chapter 13
01:17:43.967 : Chapter 14
01:27:52.242 : Chapter 15
01:33:28.703 : Chapter 16

Download Kingdom of the Spiders 1977 ()

Kingdom of the Spiders 1977 (in Hollywood Movies)
File: Kingdom_of_the_Spiders_1977_BluRay_high.mp4
File Size: 220 MB
Loading...